img image001 image001 image001 image001 image001 image001 image001 image001 image001 image001 image001 image001 image001 image001 image001 image001
Planets Sun Sun Sun
Статистика раздачи
Автор: mari | Размер: 14.39 ГБ | Добавлен: 15 май 2018
Раздают: 15    Качают: 13
Скачать торрент
Скачать торрент

СообщениеДобавлено: 15 май 2018 

Девочки не сдаются (1-8 серии из 20)

Перевод: Не требуется, cубтитры: отсутствуют
Формат: WEB-DL 1080p, MKV, H.264, AC3
Страна: Россия
Режиссер: Сергей Краснов, Мария Кравченко
Жанр: комедия, драма, мелодрама
Всего серий: 20
Продолжительность: 8 x ~ 00:47:30
Год выпуска: 2018

В ролях: Любовь Толкалина, Мария Валешная, Анна Якунина, Виктория Кобленко, Агния Кузнецова, Алексей Макаров, Кирилл Сафонов, Данила Дунаев, Андрей Чернышов, Ирина Темичева, Александр Ратников, Виктор Логинов, Максим Аверин, Маргарита Адаева, Алексей Демидов, Александра Чичкова, Наталья Тетенова, Артем Башенин, Артём Федотов, Роман Васильев, Артем Волобуев, Юлия Назаренко-Благая, Елена Махова, Виктория Полторак, Иван Босильчич, Антон Филипенко, Данила Якушев, Елена Лемешко, Вероника Тимофеева

Описание: 5 женских судеб, 5 сложных характеров и 5 любовных драм – в новой лирической комедии героини влюбляются, изменяют, разводятся, воспитывают детей и мужчин. Экс-модель, ведущая прогноза погоды, бизнесвумен, стюардесса и студентка – они такие разные, но объединяет их одно – стремление к простому женскому счастью. Правда, неожиданные перемены превращают их размеренную жизнь в американские горки с крутыми виражами и непредсказуемым финалом.

Рейтинг и доп. информация:


Видео: 1920x1080 (16:9), 25 fps, AVC MPEG-4 (x264), [email protected] ~ 5200 kbps avg, 0.099 bit/pixel
Аудио: 44 kHz, АС3, 2/0 (L,R), ~192.00 kbps avg
Внимание! Раздача ведётся путём добавления новых серий. При каждом добавлении создаётся новый торрент.
Чтобы начать докачку новой серии, пользователям необходимо сделать следующее:
1. Остановить скачивание.
2. Удалить старый торрент у себя из клиента (старые серии удалять не надо).
3. Скачать новый торрент и запустить его у себя в клиенте вместо старого, при этом указать клиенту путь в старую папку куда и должно происходить скачивание новых серий. Ваш клиент при этом должен произвести хеширование (проверку) старой папки и будет докачивать только те серии, которых у вас ещё нет. Старые серии при этом не удаляются, а продолжают раздаваться! Eсли вы уже удалили старые серии, то предотвратить повторную закачку старых серий можно, отжав галочку в соответствующих местах при запуске нового торрента.


Общее
Уникальный идентификатор : 197435671205962658348568836403833162235 (0x9488BA24F79E5C26B50D648856F949FB)
Полное имя : C:\Devochki.ne.sdayutsya.S01. .(2018). WEB-DL.1080.Files-x\01.Devochki.ne.sdayutsya. WEB-DL.1080.Files-x.mkv
Формат : Matroska
Версия формата : Version 2
Размер файла : 1,81 Гбайт
Продолжительность : 48 м. 58 с.
Общий поток : 5306 Кбит/сек
Дата кодирования : UTC 2018-05-07 12:52:43
Программа кодирования : mkvmerge v7.8.0 ('River Man') 32bit built on Apr 3 2015 12:11:22
Библиотека кодирования : libebml v1.3.1 + libmatroska v1.4.2

Видео
Идентификатор : 1
Формат : AVC
Формат/Информация : Advanced Video Codec
Профиль формата : [email protected]
Настройки формата : CABAC / 4 Ref Frames
Параметр CABAC формата : Да
Параметр RefFrames формата : 4 кадра
Идентификатор кодека : V_MPEG4/ISO/AVC
Продолжительность : 48 м. 58 с.
Битрейт : 5200 Кбит/сек
Ширина : 1920 пикселей
Высота : 1080 пикселей
Соотношение сторон : 16:9
Режим частоты кадров : Постоянный
Частота кадров : 25,000 кадров/сек
Цветовое пространство : YUV
Субдискретизация насыщенности : 4:2:0
Битовая глубина : 8 бит
Тип развёртки : Прогрессивная
Бит/(Пиксели*Кадры) : 0.099
Размер потока : 1,71 Гбайт (94%)
Библиотека кодирования : x264 core 142
Настройки программы : cabac=1 / ref=3 / deblock=1:0:0 / analyse=0x3:0x113 / me=hex / subme=7 / psy=1 / psy_rd=1.00:0.00 / mixed_ref=1 / me_range=16 / chroma_me=1 / trellis=1 / 8x8dct=1 / cqm=0 / deadzone=21,11 / fast_pskip=1 / chroma_qp_offset=-2 / threads=108 / lookahead_threads=8 / sliced_threads=0 / nr=0 / decimate=1 / interlaced=0 / bluray_compat=0 / constrained_intra=0 / bframes=6 / b_pyramid=2 / b_adapt=1 / b_bias=0 / direct=1 / weightb=1 / open_gop=0 / weightp=2 / keyint=50 / keyint_min=26 / scenecut=0 / intra_refresh=0 / rc_lookahead=40 / rc=2pass / mbtree=1 / bitrate=5120 / ratetol=1.0 / qcomp=0.60 / qpmin=0 / qpmax=69 / qpstep=4 / cplxblur=20.0 / qblur=0.5 / vbv_maxrate=7680 / vbv_bufsize=20480 / nal_hrd=none / filler=0 / ip_ratio=1.40 / aq=1:1.00
Default : Да
Forced : Нет

Аудио
Идентификатор : 2
Формат : AC-3
Формат/Информация : Audio Coding 3
Идентификатор кодека : A_AC3
Продолжительность : 48 м. 58 с.
Вид битрейта : Постоянный
Битрейт : 192 Кбит/сек
Каналы : 2 канала
Расположение каналов : Front: L R
Частота : 48,0 КГц
Частота кадров : 31,250 кадров/сек (1536 SPF)
Битовая глубина : 16 бит
Метод сжатия : С потерями
Размер потока : 67,2 Мбайт (4%)
ServiceKind/String : Complete Main
Default : Да
Forced : Нет








   Похожие торренты   Торрент   Размер 
В этой теме нет новых непрочитанных сообщений. Девочки не сдаются (1-7 серии из 20) (Сергей Краснов, Мария Кравченко) [2018, комедия, драма, мелодрама, WEB-DL 1080p]

8 | 7

12.59 ГБ

В этой теме нет новых непрочитанных сообщений. Девочки не сдаются (1-7 серии из 20) (Сергей Краснов, Мария Кравченко) [2018, комедия, драма, мелодрама, WEB-DL 720p]

8 | 15

8.65 ГБ

В этой теме нет новых непрочитанных сообщений. Девочки не сдаются (1-8 серии из 20) (Сергей Краснов, Мария Кравченко) [2018, комедия, драма, мелодрама, WEB-DLRip]

58 | 34

4.69 ГБ

В этой теме нет новых непрочитанных сообщений. Девочки не сдаются (1-7 серии из 20) (Сергей Краснов, Мария Кравченко) [2018, комедия, драма, мелодрама, WEB-DLRip-AVC]

20 | 12

4.24 ГБ

В этой теме нет новых непрочитанных сообщений. Девочки не сдаются (1-7 серии из 20) (Сергей Краснов, Мария Кравченко) [2018, комедия, драма, мелодрама, WEB-DLRip]

30 | 37

4.11 ГБ

В этой теме нет новых непрочитанных сообщений. Девочки не сдаются (1-4 серии из 20) (Сергей Краснов, Мария Кравченко) [2018, комедия, драма, мелодрама, WEB-DL 720p]

28 | 9

4.91 ГБ

В этой теме нет новых непрочитанных сообщений. Девочки не сдаются (1-8 серии из 20) (Сергей Краснов, Мария Кравченко) [2018, комедия, драма, мелодрама, WEB-DL 720p]

12 | 19

9.58 ГБ




Вы не можете начинать темы
Вы не можете отвечать на сообщения
Вы не можете редактировать свои сообщения
Вы не можете удалять свои сообщения
Вы не можете добавлять вложения

Перейти:  
Для Мосгорсуда, Роскомнадзора и рекламодателей: mosgorsud-torrent[собачка]yandex.ru
 Вход
ppkBB3cker v.2 © 2008-2014 @ PPK
[ Time : 0.020s | 16 Queries | GZIP : Off ]

Торрент трекер RS-torrent.com
cron