img image001 image001 image001 image001 image001 image001 image001 image001 image001 image001 image001 image001 image001 image001 image001 image001
Planets Sun Sun Sun
Статистика раздачи
Автор: mari | Размер: 2.18 ГБ | Добавлен: 15 май 2018
Раздают: 22    Качают: 2
Скачать торрент
Скачать торрент

СообщениеДобавлено: 15 май 2018 

Кукла / The Boy


Перевод: Профессиональный (полное дублирование) Лицензия
Cубтитры: Pусские, английские
Формат: BDRip-AVC, MKV, H.264, AC3
Страна: США, Китай, Канада
Режиссер: Уильям Брент Белл
Жанр: ужасы, триллер, детектив
Продолжительность: 01:37:12
Год выпуска: 2016

В ролях: Лорен Кохэн, Руперт Эванс, Джеймс Расселл, Джим Нортон, Диана Хардкэсл, Бен Робсон, Джетт Клине, Лили Патер, Мэттью Уокер, Стефани Николь Лемелин

Описание: Благополучная английская семья нанимает для своего сына американскую няню. Приехав на новое место работы, няня обнаруживает, что ее подопечный — вовсе не настоящий мальчик, а кукла в человеческий рост, с которой обращаются, как с живым человеком. Но тревожные события, происходящие после того, как няня нарушает установленные строгие правила, заставляют её поверить в то, что кукла действительно может быть живой…



Видео: 1152x480 (2,40:1), 23.976 fps, AVC MPEG-4 (x264), [email protected],1, ~ 2 296 Кбит/сек , 0.173 bit/pixel

Аудио#1: Русский: 48 kHz/16 bits, AC3 Dolby Digital, 3/2 (L,C,R,l,r) + LFE ch, ~ 448 kbps avg [Профессиональный (полное дублирование), Лицензия]
Аудио#2: Английский: 48 kHz/16 bits, AC3 Dolby Digital, 3/2 (L,C,R,l,r) + LFE ch, ~ 448 kbps avg [Оригинал]





Общее
Уникальный идентификатор : 226883203462821540767118931967683528609 (0xAAB01D9435C1EE8B8E3B3601795307A1)
Полное имя : E:\Закачка-2\Kukla.2016.DUAL.BDRip.x264.-HELLYWOOD.mkv
Формат : Matroska
Версия формата : Version 4 / Version 2
Размер файла : 2,18 Гбайт
Продолжительность : 1 ч. 37 м.
Общий поток : 3190 Кбит/сек
Название фильма : The Boy (2016)
Дата кодирования : UTC 2018-05-14 15:28:43
Программа кодирования : mkvmerge v5.9.0 ('On The Loose') built on Dec 15 2012 16:39:58
Библиотека кодирования : libebml v1.3.0 + libmatroska v1.4.0

Видео
Идентификатор : 1
Формат : AVC
Формат/Информация : Advanced Video Codec
Профиль формата :
Параметр CABAC формата : Да
Параметр ReFrames формата : 10 кадров
Идентификатор кодека : V_MPEG4/ISO/AVC
Продолжительность : 1 ч. 37 м.
Битрейт : 2296 Кбит/сек
Ширина : 1152 пикселя
Высота : 480 пикселей
Соотношение сторон : 2,40:1
Режим частоты кадров : Постоянный
Частота кадров : 23,976 (24000/1001) кадра/сек
Цветовое пространство : YUV
Субдискретизация насыщенности : 4:2:0
Битовая глубина : 8 бит
Тип развёртки : Прогрессивная
Бит/(Пиксели*Кадры) : 0.173
Размер потока : 1,52 Гбайт (70%)
Заголовок : potroks
Библиотека кодирования : x264 core 155 r2901M 7d0ff22
Настройки программы : cabac=1 / ref=10 / deblock=1:-1:-1 / analyse=0x3:0x133 / me=umh / subme=11 / psy=1 / psy_rd=1.00:0.05 / mixed_ref=1 / me_range=48 / chroma_me=1 / trellis=2 / 8x8dct=1 / cqm=0 / deadzone=21,11 / fast_pskip=0 / chroma_qp_offset=-3 / threads=9 / lookahead_threads=2 / sliced_threads=0 / nr=0 / decimate=0 / interlaced=0 / bluray_compat=0 / constrained_intra=0 / bframes=11 / b_pyramid=2 / b_adapt=2 / b_bias=0 / direct=3 / weightb=1 / open_gop=0 / weightp=2 / keyint=240 / keyint_min=23 / scenecut=40 / intra_refresh=0 / rc_lookahead=100 / rc=2pass / mbtree=0 / bitrate=2296 / ratetol=1.0 / qcomp=0.70 / qpmin=0 / qpmax=69 / qpstep=4 / cplxblur=20.0 / qblur=0.5 / vbv_maxrate=50000 / vbv_bufsize=50000 / nal_hrd=none / filler=0 / ip_ratio=1.40 / pb_ratio=1.30 / aq=2:0.80
Язык : English
Default : Да
Forced : Нет

Аудио #1
Идентификатор : 2
Формат : AC-3
Формат/Информация : Audio Coding 3
Расширение режима : CM (complete main)
Параметр Endianness формата : Big
Идентификатор кодека : A_AC3
Продолжительность : 1 ч. 37 м.
Вид битрейта : Постоянный
Битрейт : 448 Кбит/сек
Каналы : 6 каналов
Расположение каналов : Front: L C R, Side: L R, LFE
Частота : 48,0 КГц
Частота кадров : 31,250 кадров/сек (1536 spf)
Метод сжатия : С потерями
Размер потока : 313 Мбайт (14%)
Заголовок : Dub | DD 5.1 @ 448 kbps - Blu-ray RUS
Язык : Russian
Default : Да
Forced : Нет

Аудио #2
Идентификатор : 3
Формат : AC-3
Формат/Информация : Audio Coding 3
Расширение режима : CM (complete main)
Параметр Endianness формата : Big
Идентификатор кодека : A_AC3
Продолжительность : 1 ч. 37 м.
Вид битрейта : Постоянный
Битрейт : 448 Кбит/сек
Каналы : 6 каналов
Расположение каналов : Front: L C R, Side: L R, LFE
Частота : 48,0 КГц
Частота кадров : 31,250 кадров/сек (1536 spf)
Метод сжатия : С потерями
Размер потока : 313 Мбайт (14%)
Заголовок : Original | DD 5.1 @ 448 kbps
Язык : English
Default : Нет
Forced : Нет

Текст #1
Идентификатор : 4
Формат : UTF-8
Идентификатор кодека : S_TEXT/UTF8
Идентификатор кодека/Информация : UTF-8 Plain Text
Заголовок : SDH
Язык : Russian
Default : Нет
Forced : Нет

Текст #2
Идентификатор : 5
Формат : UTF-8
Идентификатор кодека : S_TEXT/UTF8
Идентификатор кодека/Информация : UTF-8 Plain Text
Заголовок : Full
Язык : English
Default : Нет
Forced : Нет

Текст #3
Идентификатор : 6
Формат : UTF-8
Идентификатор кодека : S_TEXT/UTF8
Идентификатор кодека/Информация : UTF-8 Plain Text
Заголовок : SDH
Язык : English
Default : Нет
Forced : Нет

Текст #4
Идентификатор : 7
Формат : UTF-8
Идентификатор кодека : S_TEXT/UTF8
Идентификатор кодека/Информация : UTF-8 Plain Text
Заголовок : SDH-Colored
Язык : English
Default : Нет
Forced : Нет

Меню
00:00:00.000 : :1
00:05:50.000 : :2
00:09:54.000 : :3
00:14:06.000 : :4
00:18:15.000 : :5
00:23:56.000 : :6
00:27:58.000 : :7
00:32:20.000 : :8
00:38:15.000 : :9
00:41:41.000 : :10
00:45:07.000 : :11
00:51:32.000 : :12
00:54:22.000 : :13
01:01:28.000 : :14
01:05:37.000 : :15
01:09:27.000 : :16
01:15:56.000 : :17
01:19:54.000 : :18
01:27:06.000 : :19
01:33:21.000 : :20






   Похожие торренты   Торрент   Размер 
В этой теме нет новых непрочитанных сообщений. Кукла / The Boy (Уильям Брент Белл) [2016, триллер, BDRip] DUB

104 | 6

1.46 ГБ

В этой теме нет новых непрочитанных сообщений. Кукла / The Boy (Уильям Брент Белл) [2016, триллер, BDRip] DUB

21 | 8

747.41 МБ

В этой теме нет новых непрочитанных сообщений. Кукла / The Boy (Уильям Брент Белл) [2016, ужасы, триллер, CamRip] DUB

778 | 100

699.19 МБ

В этой теме нет новых непрочитанных сообщений. Кукла / Мальчик / The Boy (Уильям Брент Белл) [2016, ужасы, мистика, триллер, детектив, BDRip] DUB / Мистика

122 | 14

1.46 ГБ

В этой теме нет новых непрочитанных сообщений. Взлом / Keep Watching (Шон Картер) [2017, ужасы, триллер, BDRip-AVC] MVO / Фильмы HDRip

24 | 3

2.31 ГБ

В этой теме нет новых непрочитанных сообщений. Тайное окно / Secret Window (Дэвид Кепп) [2004, триллер, детектив, BDRip-AVC] DUB / Фильмы HDRip

3 | 0

2.2 ГБ

В этой теме нет новых непрочитанных сообщений. Видок / Vidocq (Питоф) [2001, фантастика, боевик, триллер, криминал, детектив, BDRip-AVC] DUB / Фильмы HDRip

102 | 9

2.18 ГБ




Вы не можете начинать темы
Вы не можете отвечать на сообщения
Вы не можете редактировать свои сообщения
Вы не можете удалять свои сообщения
Вы не можете добавлять вложения

Перейти:  
Для Мосгорсуда, Роскомнадзора и рекламодателей: mosgorsud-torrent[собачка]yandex.ru
 Вход
ppkBB3cker v.2 © 2008-2014 @ PPK
[ Time : 0.022s | 17 Queries | GZIP : Off ]

Торрент трекер RS-torrent.com
cron